PRECAUCION: no resubir o pasar el material a otras webs, tu IP y modem pueden ser bloqueados.

Guerra de papas 2 BDRIP INFO

Format : Matroska
Format version : Version 4 / Version 2
File size : 10.3 GiB
Duration : 1 h 39 min
Overall bit rate : 14.8 Mb/s
Movie name : Freaked-HD
Encoded date : UTC 2018-02-07 14:42:15
Writing application : mkvmerge v19.0.0 ('Brave Captain') 64-bit
Writing library : libebml v1.3.5 + libmatroska v1.4.8

Video
ID : 1
Format : AVC
Format/Info : Advanced Video Codec
Format profile : High@L4.1
Format settings : CABAC / 4 Ref Frames
Format settings, CABAC : Yes
Format settings, ReFrames : 4 frames
Codec ID : V_MPEG4/ISO/AVC
Duration : 1 h 39 min
Bit rate : 10.3 Mb/s
Width : 1 920 pixels
Height : 1 080 pixels
Display aspect ratio : 16:9
Frame rate mode : Constant
Frame rate : 23.976 (24000/1001) FPS
Color space : YUV
Chroma subsampling : 4:2:0
Bit depth : 8 bits
Scan type : Progressive
Bits/(Pixel*Frame) : 0.208
Stream size : 7.20 GiB (70%)
Writing library : x264 core 155 r2901 7d0ff22
Encoding settings : cabac=1 / ref=4 / deblock=1:0:0 / analyse=0x3:0x113 / me=umh / subme=8 / psy=1 / psy_rd=1.00:0.00 / mixed_ref=1 / me_range=16 / chroma_me=1 / trellis=1 / 8x8dct=1 / cqm=0 / deadzone=21,11 / fast_pskip=1 / chroma_qp_offset=-2 / threads=24 / lookahead_threads=4 / sliced_threads=0 / nr=0 / decimate=1 / interlaced=0 / bluray_compat=0 / constrained_intra=0 / bframes=3 / b_pyramid=2 / b_adapt=1 / b_bias=0 / direct=3 / weightb=1 / open_gop=0 / weightp=2 / keyint=240 / keyint_min=24 / scenecut=40 / intra_refresh=0 / rc_lookahead=50 / rc=2pass / mbtree=1 / bitrate=10343 / ratetol=1.0 / qcomp=0.60 / qpmin=0 / qpmax=69 / qpstep=4 / cplxblur=20.0 / qblur=0.5 / ip_ratio=1.40 / aq=1:1.00
Language : English
Default : Yes
Forced : No

Audio #1
ID : 2
Format : AC-3
Format/Info : Audio Coding 3
Codec ID : A_AC3
Duration : 1 h 39 min
Bit rate mode : Constant
Bit rate : 640 kb/s
Channel(s) : 6 channels
Channel positions : Front: L C R, Side: L R, LFE
Sampling rate : 48.0 kHz
Frame rate : 31.250 FPS (1536 SPF)
Bit depth : 16 bits
Compression mode : Lossy
Stream size : 456 MiB (4%)
Title : Latino
Language : Spanish
Service kind : Complete Main
Default : Yes
Forced : No

Audio #2
ID : 3
Format : DTS
Format/Info : Digital Theater Systems
Format profile : MA / Core
Codec ID : A_DTS
Duration : 1 h 39 min
Bit rate mode : Variable / Constant
Bit rate : 3 736 kb/s / 1 509 kb/s
Channel(s) : 8 channels / 6 channels
Channel positions : Front: L C R, Side: L R, Back: L R, LFE / Front: L C R, Side: L R, LFE
Sampling rate : 48.0 kHz
Frame rate : 93.750 FPS (512 SPF)
Bit depth : 24 bits
Compression mode : Lossless / Lossy
Stream size : 2.60 GiB (25%)
Title : Ingles DTS-HD.MA.7.1
Language : English
Default : No
Forced : No

Text #1
ID : 4
Format : UTF-8
Codec ID : S_TEXT/UTF8
Codec ID/Info : UTF-8 Plain Text
Duration : 1 h 11 min
Bit rate : 0 b/s
Count of elements : 10
Stream size : 276 Bytes (0%)
Title : Forzados Latino
Language : Spanish
Default : Yes
Forced : Yes

Text #2
ID : 5
Format : UTF-8
Codec ID : S_TEXT/UTF8
Codec ID/Info : UTF-8 Plain Text
Duration : 1 h 38 min
Bit rate : 82 b/s
Count of elements : 1635
Stream size : 59.3 KiB (0%)
Title : Latino SRT
Language : Spanish
Default : No
Forced : No

Text #3
ID : 6
Format : PGS
Muxing mode : zlib
Codec ID : S_HDMV/PGS
Codec ID/Info : Picture based subtitle format used on BDs/HD-DVDs
Duration : 1 h 38 min
Bit rate : 49.7 kb/s
Count of elements : 3276
Stream size : 35.1 MiB (0%)
Title : Latino PGS
Language : Spanish
Default : No
Forced : No

Text #4
ID : 7
Format : UTF-8
Codec ID : S_TEXT/UTF8
Codec ID/Info : UTF-8 Plain Text
Duration : 4 s 213 ms
Bit rate : 136 b/s
Count of elements : 1
Stream size : 72.0 Bytes (0%)
Title : English-FORCED-SRT
Language : English
Default : No
Forced : No

Text #5
ID : 8
Format : UTF-8
Codec ID : S_TEXT/UTF8
Codec ID/Info : UTF-8 Plain Text
Duration : 1 h 38 min
Bit rate : 101 b/s
Count of elements : 2335
Stream size : 72.8 KiB (0%)
Title : English-SRT
Language : English
Default : No
Forced : No

Text #6
ID : 9
Format : PGS
Muxing mode : zlib
Codec ID : S_HDMV/PGS
Codec ID/Info : Picture based subtitle format used on BDs/HD-DVDs
Duration : 4 s 212 ms
Bit rate : 90.1 kb/s
Count of elements : 2
Stream size : 46.3 KiB (0%)
Title : English-PGS
Language : English
Default : No
Forced : No

Text #7
ID : 10
Format : PGS
Muxing mode : zlib
Codec ID : S_HDMV/PGS
Codec ID/Info : Picture based subtitle format used on BDs/HD-DVDs
Duration : 1 h 38 min
Bit rate : 60.4 kb/s
Count of elements : 4063
Stream size : 42.4 MiB (0%)
Title : English-SDH-PGS
Language : English
Default : No
Forced : No

Text #8
ID : 11
Format : PGS
Muxing mode : zlib
Codec ID : S_HDMV/PGS
Codec ID/Info : Picture based subtitle format used on BDs/HD-DVDs
Duration : 1 h 38 min
Bit rate : 53.7 kb/s
Count of elements : 4094
Stream size : 37.9 MiB (0%)
Title : Spanish-PGS
Language : Spanish
Default : No
Forced : No

Menu
00:00:00.000 : en:Chapter 01
00:08:08.529 : en:Chapter 02
00:16:08.092 : en:Chapter 03
00:21:44.052 : en:Chapter 04
00:27:40.158 : en:Chapter 05
00:32:47.423 : en:Chapter 06
00:40:49.029 : en:Chapter 07
00:47:57.165 : en:Chapter 08
00:52:27.894 : en:Chapter 09
01:00:08.730 : en:Chapter 10
01:08:37.363 : en:Chapter 11
01:15:23.101 : en:Chapter 12
01:26:24.846 : en:Chapter 13
01:33:34.942 : en:Chapter 14


Reportar Error Visitas: 177