Precaución: no resubir o pasar el material a otras webs, tu IP y modem pueden ser bloqueados.

INFO BAYWATCH WEBDL

General
Complete name : C:\Baywatch Guardianes de la Bahía (2017) Latino HD WEBDL 1080P latinomegahd.mkv
Format : Matroska
Format version : Version 4 / Version 2
File size : 4.11 GiB
Duration : 1 h 56 min
Overall bit rate : 5 034 kb/s
Encoded date : UTC 2017-08-15 05:34:03
Writing application : mkvmerge v10.0.0 ('To Drown In You') 64bit
Writing library : libebml v1.3.4 + libmatroska v1.4.5

Video
ID : 1
Format : AVC
Format/Info : Advanced Video Codec
Format profile : High@L4
Format settings, CABAC : Yes
Format settings, ReFrames : 5 frames
Codec ID : V_MPEG4/ISO/AVC
Duration : 1 h 56 min
Bit rate : 4 523 kb/s
Width : 1 920 pixels
Height : 804 pixels
Display aspect ratio : 2.40:1
Frame rate mode : Constant
Frame rate : 23.976 FPS
Color space : YUV
Chroma subsampling : 4:2:0
Bit depth : 8 bits
Scan type : Progressive
Bits/(Pixel*Frame) : 0.122
Stream size : 3.69 GiB (90%)
Language : English
Default : Yes
Forced : No
Color range : Limited
Color primaries : BT.709
Transfer characteristics : BT.709
Matrix coefficients : BT.709

Audio #1
ID : 2
Format : AAC
Format/Info : Advanced Audio Codec
Format profile : LC
Codec ID : A_AAC
Duration : 1 h 56 min
Bit rate : 126 kb/s
Channel(s) : 2 channels
Channel positions : Front: L R
Sampling rate : 48.0 kHz
Frame rate : 46.875 FPS (1024 spf)
Compression mode : Lossy
Stream size : 105 MiB (2%)
Title : Audio Latino
Language : Spanish
Default : Yes
Forced : No

Audio #2
ID : 3
Format : AC-3
Format/Info : Audio Coding 3
Mode extension : CM (complete main)
Format settings, Endianness : Big
Codec ID : A_AC3
Duration : 1 h 56 min
Bit rate mode : Constant
Bit rate : 384 kb/s
Channel(s) : 6 channels
Channel positions : Front: L C R, Side: L R, LFE
Sampling rate : 48.0 kHz
Frame rate : 31.250 FPS (1536 spf)
Bit depth : 16 bits
Compression mode : Lossy
Stream size : 320 MiB (8%)
Title : Audio Ingles
Language : English
Default : No
Forced : No

Text #1
ID : 4
Format : UTF-8
Codec ID : S_TEXT/UTF8
Codec ID/Info : UTF-8 Plain Text
Duration : 1 h 54 min
Bit rate : 0 b/s
Count of elements : 7
Stream size : 186 Bytes (0%)
Title : Forzados
Language : Spanish
Default : Yes
Forced : No

Text #2
ID : 5
Format : UTF-8
Codec ID : S_TEXT/UTF8
Codec ID/Info : UTF-8 Plain Text
Duration : 1 h 55 min
Bit rate : 67 b/s
Count of elements : 1638
Stream size : 56.8 KiB (0%)
Title : Completos
Language : Spanish
Default : No
Forced : No

Menu
00:00:00.000 : en:1
00:07:39.000 : en:2
00:14:45.000 : en:3
00:18:52.000 : en:4
00:27:30.000 : en:5
00:36:00.000 : en:6
00:42:51.000 : en:7
00:48:29.000 : en:8
00:59:25.000 : en:9
01:09:19.000 : en:10
01:15:52.000 : en:11
01:24:40.000 : en:12
01:31:02.000 : en:13
01:39:30.000 : en:14
01:45:05.000 : en:15
01:49:50.000 : en:16


Reportar Error Visitas: 130