PRECAUCION: no resubir o pasar el material a otras webs, tu IP y modem pueden ser bloqueados.

INFO MAX STEEL BDRIP

General
Complete name : C:\Max Steel (2016) Latino HD BDRIP 1080P latinomegahd.net.mkv
Format : Matroska
Format version : Version 4 / Version 2
File size : 10.6 GiB
Duration : 1 h 32 min
Overall bit rate : 16.5 Mb/s
Encoded date : UTC 2017-04-06 21:57:52
Writing application : mkvmerge v10.0.0 ('To Drown In You') 64bit
Writing library : libebml v1.3.4 + libmatroska v1.4.5

Video
ID : 1
Format : AVC
Format/Info : Advanced Video Codec
Format profile : High@L4.1
Format settings, CABAC : Yes
Format settings, ReFrames : 5 frames
Codec ID : V_MPEG4/ISO/AVC
Duration : 1 h 32 min
Bit rate : 14.5 Mb/s
Width : 1 920 pixels
Height : 800 pixels
Display aspect ratio : 2.40:1
Frame rate mode : Constant
Frame rate : 23.976 (24000/1001) FPS
Color space : YUV
Chroma subsampling : 4:2:0
Bit depth : 8 bits
Scan type : Progressive
Bits/(Pixel*Frame) : 0.394
Stream size : 9.36 GiB (88%)
Writing library : x264 core 148 r2744 b97ae06
Encoding settings : cabac=1 / ref=5 / deblock=1:-3:-3 / analyse=0x3:0x133 / me=tesa / subme=11 / psy=1 / psy_rd=1.00:0.00 / mixed_ref=1 / me_range=32 / chroma_me=1 / trellis=2 / 8x8dct=1 / cqm=0 / deadzone=21,11 / fast_pskip=0 / chroma_qp_offset=-2 / threads=25 / lookahead_threads=4 / sliced_threads=0 / nr=0 / decimate=0 / interlaced=0 / bluray_compat=0 / constrained_intra=0 / bframes=9 / b_pyramid=2 / b_adapt=2 / b_bias=0 / direct=3 / weightb=1 / open_gop=0 / weightp=2 / keyint=240 / keyint_min=23 / scenecut=40 / intra_refresh=0 / rc_lookahead=150 / rc=2pass / mbtree=0 / bitrate=14500 / ratetol=1.0 / qcomp=0.50 / qpmin=0 / qpmax=69 / qpstep=4 / cplxblur=20.0 / qblur=0.5 / vbv_maxrate=62500 / vbv_bufsize=78125 / nal_hrd=none / filler=0 / ip_ratio=1.40 / pb_ratio=1.30 / aq=1:0.80 / zones=1644,1736,b=1.4/2667,2794,b=1.4/6007,6791,b=1.4/6993,7103,b=1.4/7282,7467,b=1.4/8570,8753,b=1.4/10306,10379,b=1.4/12002,12075,b=1.4/12195,12413,b=1.4/14123,14189,b=1.4/14554,14619,b=1.4/16130,16335,b=1.4/18541,18817,b=1.4/19278,19533,b=1.4/19766,20002,b=1.4/20300,20437,b=1.4/20466,20526,b=1.4/21507,21691,b=1.4/28520,29116,b=1.4/29793,29827,b=1.4/33562,33712,b=1.4/43338,43416,b=1.4/46363,46422,b=1.4/50959,51076,b=1.4/51077,51270,b=1.4/58621,58684,b=1.4/58736,58786,b=1.4/58845,58876,b=1.4/60512,60564,b=1.4/60828,61464,b=1.4/64452,64572,b=1.4/69652,70443,b=1.4/71429,71532,b=1.4/72444,72488,b=1.4/74037,74208,b=1.4/74823,74900,b=1.4/76133,76366,b=1.4/76825,77040,b=1.4/77275,77404,b=1.4/77639,77738,b=1.4/79330,79356,b=1.4/82519,83101,b=1.4/85543,85772,b=1.4/86483,86556,b=1.4/87407,87445,b=1.4/87480,87558,b=1.4/89443,89458,b=1.4/96006,96719,b=1.4/96821,97170,b=1.4/97171,98052,b=1.4/108128,108360,b=1.4/110016,110073,b=1.4/116229,116327,b=1.4/124487,124814,b=1.4/124815,133001,b=0.2
Default : Yes
Forced : No
Color range : Limited
Matrix coefficients : BT.709

Audio #1
ID : 2
Format : AC-3
Format/Info : Audio Coding 3
Mode extension : CM (complete main)
Format settings, Endianness : Big
Codec ID : A_AC3
Duration : 1 h 32 min
Bit rate mode : Constant
Bit rate : 448 kb/s
Channel(s) : 6 channels
Channel positions : Front: L C R, Side: L R, LFE
Sampling rate : 48.0 kHz
Frame rate : 31.250 FPS (1536 spf)
Bit depth : 16 bits
Compression mode : Lossy
Stream size : 296 MiB (3%)
Title : Audio Latino
Language : Spanish
Default : Yes
Forced : No

Audio #2
ID : 3
Format : DTS
Format/Info : Digital Theater Systems
Mode : 16
Format settings, Endianness : Big
Codec ID : A_DTS
Duration : 1 h 32 min
Bit rate mode : Constant
Bit rate : 1 509 kb/s
Channel(s) : 6 channels
Channel positions : Front: L C R, Side: L R, LFE
Sampling rate : 48.0 kHz
Frame rate : 93.750 FPS (512 spf)
Bit depth : 24 bits
Compression mode : Lossy
Stream size : 998 MiB (9%)
Title : Audio Ingles
Language : English
Default : No
Forced : No

Text
ID : 4
Format : UTF-8
Codec ID : S_TEXT/UTF8
Codec ID/Info : UTF-8 Plain Text
Duration : 1 h 25 min
Bit rate : 54 b/s
Count of elements : 1027
Stream size : 33.8 KiB (0%)
Title : Subtitulos Español Latino
Language : Spanish
Default : No
Forced : No

Menu
00:00:00.000 : en:Chapter 1
00:04:43.283 : en:Chapter 2
00:10:19.494 : en:Chapter 3
00:15:11.911 : en:Chapter 4
00:19:45.142 : en:Chapter 5
00:23:05.342 : en:Chapter 6
00:26:47.147 : en:Chapter 7
00:30:20.277 : en:Chapter 8
00:35:22.495 : en:Chapter 9
00:38:15.668 : en:Chapter 10
00:43:01.287 : en:Chapter 11
00:48:07.510 : en:Chapter 12
00:54:16.378 : en:Chapter 13
01:00:07.062 : en:Chapter 14
01:03:43.361 : en:Chapter 15
01:08:38.197 : en:Chapter 16
01:13:22.940 : en:Chapter 17
01:19:59.628 : en:Chapter 18
01:24:29.982 : en:Chapter 19
01:26:45.826 : en:Chapter 20


Reportar Error Visitas: 120