Fragmentado WEB-DL INFO

Format : Matroska
Format version : Version 4 / Version 2
File size : 4.12 GiB
Duration : 1 h 57 min
Overall bit rate : 5 036 kb/s
Movie name : Freaked-HD
Encoded date : UTC 2017-04-04 10:33:55
Writing application : mkvmerge v9.9.0 ('Pick Up') 64bit
Writing library : libebml v1.3.4 + libmatroska v1.4.5

Video
ID : 1
Format : AVC
Format/Info : Advanced Video Codec
Format profile : High@L4
Format settings, CABAC : Yes
Format settings, ReFrames : 5 frames
Codec ID : V_MPEG4/ISO/AVC
Duration : 1 h 57 min
Bit rate : 4 524 kb/s
Width : 1 916 pixels
Height : 800 pixels
Display aspect ratio : 2.40:1
Frame rate mode : Constant
Frame rate : 23.976 FPS
Color space : YUV
Chroma subsampling : 4:2:0
Bit depth : 8 bits
Scan type : Progressive
Bits/(Pixel*Frame) : 0.123
Stream size : 3.70 GiB (90%)
Language : English
Default : Yes
Forced : No
Color range : Limited
Color primaries : BT.709
Transfer characteristics : BT.709
Matrix coefficients : BT.709

Audio #1
ID : 2
Format : AAC
Format/Info : Advanced Audio Codec
Format profile : LC
Codec ID : A_AAC
Duration : 1 h 57 min
Bit rate : 126 kb/s
Channel(s) : 2 channels
Channel positions : Front: L R
Sampling rate : 48.0 kHz
Frame rate : 46.875 FPS (1024 spf)
Compression mode : Lossy
Stream size : 105 MiB (2%)
Title : Latino
Language : Spanish
Default : Yes
Forced : No

Audio #2
ID : 3
Format : AC-3
Format/Info : Audio Coding 3
Mode extension : CM (complete main)
Format settings, Endianness : Big
Codec ID : A_AC3
Duration : 1 h 57 min
Bit rate mode : Constant
Bit rate : 384 kb/s
Channel(s) : 6 channels
Channel positions : Front: L C R, Side: L R, LFE
Sampling rate : 48.0 kHz
Frame rate : 31.250 FPS (1536 spf)
Bit depth : 16 bits
Compression mode : Lossy
Stream size : 322 MiB (8%)
Title : Ingles
Language : English
Default : No
Forced : No

Text #1
ID : 4
Format : UTF-8
Codec ID : S_TEXT/UTF8
Codec ID/Info : UTF-8 Plain Text
Duration : 1 h 55 min
Bit rate : 45 b/s
Count of elements : 1273
Stream size : 38.4 KiB (0%)
Title : Latino
Language : Spanish
Default : No
Forced : No

Text #2
ID : 5
Format : UTF-8
Codec ID : S_TEXT/UTF8
Codec ID/Info : UTF-8 Plain Text
Duration : 1 h 46 min
Bit rate : 0 b/s
Count of elements : 8
Stream size : 205 Bytes (0%)
Title : Latino/Forzados
Language : Spanish
Default : Yes
Forced : No

Text #3
ID : 6
Format : UTF-8
Codec ID : S_TEXT/UTF8
Codec ID/Info : UTF-8 Plain Text
Duration : 1 h 51 min
Bit rate : 47 b/s
Count of elements : 1343
Stream size : 38.5 KiB (0%)
Title : Ingles
Language : English
Default : No
Forced : No

Menu
00:00:00.000 : en:1
00:06:09.452 : en:2
00:14:20.025 : en:3
00:20:50.373 : en:4
00:24:15.536 : en:5
00:28:38.047 : en:6
00:35:48.977 : en:7
00:42:36.384 : en:8
00:49:07.065 : en:9
00:54:10.410 : en:10
01:00:25.493 : en:11
01:06:23.558 : en:12
01:12:32.218 : en:13
01:19:36.767 : en:14
01:25:26.825 : en:15
01:29:17.554 : en:16
01:34:09.220 : en:17
01:40:46.991 : en:18
01:47:41.279 : en:19
01:52:27.731 : en:20


Reportar Error Visitas: 67