INFO HERCULES

General
Complete name : K:\Hercules (2014) Latino FULL HD BDRIP 1080P.mkv
Format : Matroska
Format version : Version 4 / Version 2
File size : 5.85 GiB
Duration : 1h 38mn
Overall bit rate : 8 535 Kbps
Encoded date : UTC 2017-01-08 23:55:55 / UTC 2017-01-02T07:25:51Z
Writing application : mkvmerge v9.6.0 ('Slave To Your Mind') 64bit
Writing library : libebml v1.3.4 + libmatroska v1.4.5 / Lavf55.12.0

Video
ID : 1
Format : AVC
Format/Info : Advanced Video Codec
Format profile : High@L4.1
Format settings, CABAC : Yes
Format settings, ReFrames : 4 frames
Codec ID : V_MPEG4/ISO/AVC
Bit rate : 6 216 Kbps
Width : 1 920 pixels
Height : 1 080 pixels
Display aspect ratio : 16:9
Frame rate mode : Variable
Color space : YUV
Chroma subsampling : 4:2:0
Bit depth : 8 bits
Scan type : Progressive
Writing library : x264 core 142 r2479 dd79a61
Encoding settings : cabac=1 / ref=4 / deblock=1:0:0 / analyse=0x3:0x133 / me=esa / subme=10 / psy=1 / psy_rd=1.00:0.00 / mixed_ref=1 / me_range=24 / chroma_me=1 / trellis=2 / 8x8dct=1 / cqm=0 / deadzone=21,11 / fast_pskip=1 / chroma_qp_offset=-2 / threads=36 / lookahead_threads=6 / sliced_threads=0 / nr=0 / decimate=1 / interlaced=0 / bluray_compat=0 / constrained_intra=0 / bframes=8 / b_pyramid=2 / b_adapt=2 / b_bias=0 / direct=3 / weightb=1 / open_gop=0 / weightp=2 / keyint=240 / keyint_min=24 / scenecut=40 / intra_refresh=0 / rc_lookahead=60 / rc=crf / mbtree=1 / crf=20.0 / qcomp=0.60 / qpmin=0 / qpmax=69 / qpstep=4 / vbv_maxrate=62500 / vbv_bufsize=78125 / crf_max=0.0 / nal_hrd=none / filler=0 / ip_ratio=1.40 / aq=1:1.00
Default : Yes
Forced : No
Color range : Limited
Color primaries : BT.709
Transfer characteristics : BT.709
Matrix coefficients : BT.709
Statistics Tags Issue : mkvmerge v9.6.0 ('Slave To Your Mind') 64bit 2017-01-08 23:55:55 / mkvmerge v9.6.0 ('Slave To Your Mind') 64bit 2017-01-08 23:55:55 / UTC 2017-01-02T07:25:51Z
FromStats_BitRate : 6383005
FromStats_Duration : 01:38:04.721000000
FromStats_FrameCount : 141089
FromStats_StreamSize : 4695275562

Audio #1
ID : 2
Format : AC-3
Format/Info : Audio Coding 3
Mode extension : CM (complete main)
Format settings, Endianness : Big
Codec ID : A_AC3
Duration : 1h 38mn
Bit rate mode : Constant
Bit rate : 640 Kbps
Channel(s) : 6 channels
Channel positions : Front: L C R, Side: L R, LFE
Sampling rate : 48.0 KHz
Frame rate : 31.250 fps (1536 spf)
Compression mode : Lossy
Stream size : 449 MiB (7%)
Title : Audio Español Latino
Language : Spanish
Default : Yes
Forced : No
Statistics Tags Issue : mkvmerge v9.6.0 ('Slave To Your Mind') 64bit 2017-01-08 23:55:55 / mkvmerge v9.6.0 ('Slave To Your Mind') 64bit 2017-01-08 23:55:55 / UTC 2017-01-02T07:25:51Z
FromStats_BitRate : 640000
FromStats_Duration : 01:38:04.736000000
FromStats_FrameCount : 183898
FromStats_StreamSize : 470778880

Audio #2
ID : 3
Format : DTS
Format/Info : Digital Theater Systems
Mode : 16
Format settings, Endianness : Big
Codec ID : A_DTS
Duration : 1h 38mn
Bit rate mode : Constant
Bit rate : 1 509 Kbps
Channel(s) : 6 channels
Channel positions : Front: L C R, Side: L R, LFE
Sampling rate : 48.0 KHz
Frame rate : 93.750 fps (512 spf)
Bit depth : 24 bits
Compression mode : Lossy
Stream size : 1.03 GiB (18%)
Title : Audio Ingles
Language : English
Default : No
Forced : No
Statistics Tags Issue : mkvmerge v9.6.0 ('Slave To Your Mind') 64bit 2017-01-08 23:55:55 / mkvmerge v9.6.0 ('Slave To Your Mind') 64bit 2017-01-08 23:55:55 / UTC 2017-01-02T07:25:51Z
FromStats_BitRate : 1508999
FromStats_Duration : 01:38:04.683000000
FromStats_FrameCount : 551689
FromStats_StreamSize : 1109998268

Text #1
ID : 4
Format : UTF-8
Codec ID : S_TEXT/UTF8
Codec ID/Info : UTF-8 Plain Text
Title : Forzados
Language : Spanish
Default : Yes
Forced : No
Statistics Tags Issue : mkvmerge v9.6.0 ('Slave To Your Mind') 64bit 2017-01-08 23:55:55 / mkvmerge v9.6.0 ('Slave To Your Mind') 64bit 2017-01-08 23:55:55 / UTC 2017-01-02T07:25:51Z
FromStats_BitRate : 0
FromStats_Duration : 01:28:52.327000000
FromStats_FrameCount : 8
FromStats_StreamSize : 203

Text #2
ID : 5
Format : UTF-8
Codec ID : S_TEXT/UTF8
Codec ID/Info : UTF-8 Plain Text
Title : Completos
Language : Spanish
Default : No
Forced : No
Statistics Tags Issue : mkvmerge v9.6.0 ('Slave To Your Mind') 64bit 2017-01-08 23:55:55 / mkvmerge v9.6.0 ('Slave To Your Mind') 64bit 2017-01-08 23:55:55 / UTC 2017-01-02T07:25:51Z
FromStats_BitRate : 41
FromStats_Duration : 01:32:02.267000000
FromStats_FrameCount : 865
FromStats_StreamSize : 28970

Menu
00:00:00.000 : :Chapter 1
00:08:10.833 : :Chapter 2
00:14:15.864 : :Chapter 3
00:23:37.593 : :Chapter 4
00:30:02.116 : :Chapter 5
00:39:31.954 : :Chapter 6
00:48:16.175 : :Chapter 7
00:54:13.119 : :Chapter 8
01:02:26.626 : :Chapter 9
01:12:36.861 : :Chapter 10
01:20:57.912 : :Chapter 11
01:30:52.214 : :Chapter 12


Reportar Error Visitas: 57