INFO EL MUNDO MAGICO DE TERABITHIA

General
Complete name : K:\El Mundo Mágico de Terabithia (2007) Latino HD 1080P.mkv
Format : Matroska
Format version : Version 4 / Version 2
File size : 5.39 GiB
Duration : 1h 35mn
Overall bit rate : 8 078 Kbps
Encoded date : UTC 2017-01-08 23:05:02 / UTC 2016-12-29T03:51:24Z
Writing application : mkvmerge v9.6.0 ('Slave To Your Mind') 64bit
Writing library : libebml v1.3.4 + libmatroska v1.4.5 / Lavf55.12.0

Video
ID : 1
Format : AVC
Format/Info : Advanced Video Codec
Format profile : High@L4.1
Format settings, CABAC : Yes
Format settings, ReFrames : 4 frames
Codec ID : V_MPEG4/ISO/AVC
Duration : 1h 35mn
Bit rate : 6 893 Kbps
Width : 1 920 pixels
Height : 1 080 pixels
Display aspect ratio : 16:9
Frame rate mode : Constant
Frame rate : 23.976 (24000/1001) fps
Color space : YUV
Chroma subsampling : 4:2:0
Bit depth : 8 bits
Scan type : Progressive
Bits/(Pixel*Frame) : 0.139
Stream size : 4.60 GiB (85%)
Writing library : x264 core 142 r2479 dd79a61
Encoding settings : cabac=1 / ref=4 / deblock=1:0:0 / analyse=0x3:0x133 / me=esa / subme=10 / psy=1 / psy_rd=1.00:0.00 / mixed_ref=1 / me_range=24 / chroma_me=1 / trellis=2 / 8x8dct=1 / cqm=0 / deadzone=21,11 / fast_pskip=1 / chroma_qp_offset=-2 / threads=36 / lookahead_threads=6 / sliced_threads=0 / nr=0 / decimate=1 / interlaced=0 / bluray_compat=0 / constrained_intra=0 / bframes=8 / b_pyramid=2 / b_adapt=2 / b_bias=0 / direct=3 / weightb=1 / open_gop=0 / weightp=2 / keyint=240 / keyint_min=24 / scenecut=40 / intra_refresh=0 / rc_lookahead=60 / rc=crf / mbtree=1 / crf=20.0 / qcomp=0.60 / qpmin=0 / qpmax=69 / qpstep=4 / vbv_maxrate=62500 / vbv_bufsize=78125 / crf_max=0.0 / nal_hrd=none / filler=0 / ip_ratio=1.40 / aq=1:1.00
Default : Yes
Forced : No
Color range : Limited
Color primaries : BT.709
Transfer characteristics : BT.709
Matrix coefficients : BT.709
Statistics Tags Issue : mkvmerge v9.6.0 ('Slave To Your Mind') 64bit 2017-01-08 23:05:02 / mkvmerge v9.6.0 ('Slave To Your Mind') 64bit 2017-01-08 23:05:02 / UTC 2016-12-29T03:51:24Z
FromStats_BitRate : 7051890
FromStats_Duration : 01:35:31.768000000
FromStats_FrameCount : 137425
FromStats_StreamSize : 5052474803

Audio #1
ID : 2
Format : AC-3
Format/Info : Audio Coding 3
Mode extension : CM (complete main)
Format settings, Endianness : Big
Codec ID : A_AC3
Duration : 1h 35mn
Bit rate mode : Constant
Bit rate : 384 Kbps
Channel(s) : 6 channels
Channel positions : Front: L C R, Side: L R, LFE
Sampling rate : 48.0 KHz
Frame rate : 31.250 fps (1536 spf)
Compression mode : Lossy
Delay relative to video : -83ms
Stream size : 262 MiB (5%)
Title : Español Latino
Language : Spanish
Default : Yes
Forced : No
Statistics Tags Issue : mkvmerge v9.6.0 ('Slave To Your Mind') 64bit 2017-01-08 23:05:02 / mkvmerge v9.6.0 ('Slave To Your Mind') 64bit 2017-01-08 23:05:02 / UTC 2016-12-29T03:51:24Z
FromStats_BitRate : 384000
FromStats_Duration : 01:35:30.752000000
FromStats_FrameCount : 179086
FromStats_StreamSize : 275076096

Audio #2
ID : 3
Format : AC-3
Format/Info : Audio Coding 3
Mode extension : CM (complete main)
Format settings, Endianness : Big
Codec ID : A_AC3
Duration : 1h 35mn
Bit rate mode : Constant
Bit rate : 640 Kbps
Channel(s) : 6 channels
Channel positions : Front: L C R, Side: L R, LFE
Sampling rate : 48.0 KHz
Frame rate : 31.250 fps (1536 spf)
Compression mode : Lossy
Delay relative to video : -83ms
Stream size : 437 MiB (8%)
Title : Ingles
Language : English
Default : No
Forced : No
Statistics Tags Issue : mkvmerge v9.6.0 ('Slave To Your Mind') 64bit 2017-01-08 23:05:02 / mkvmerge v9.6.0 ('Slave To Your Mind') 64bit 2017-01-08 23:05:02 / UTC 2016-12-29T03:51:24Z
FromStats_BitRate : 640000
FromStats_Duration : 01:35:31.776000000
FromStats_FrameCount : 179118
FromStats_StreamSize : 458542080

Text
ID : 4
Format : UTF-8
Codec ID : S_TEXT/UTF8
Codec ID/Info : UTF-8 Plain Text
Title : Subtítulos Español
Language : Spanish
Default : No
Forced : No
Statistics Tags Issue : mkvmerge v9.6.0 ('Slave To Your Mind') 64bit 2017-01-08 23:05:02 / mkvmerge v9.6.0 ('Slave To Your Mind') 64bit 2017-01-08 23:05:02 / UTC 2016-12-29T03:51:24Z
FromStats_BitRate : 48
FromStats_Duration : 01:27:40.654000000
FromStats_FrameCount : 934
FromStats_StreamSize : 32049

Menu
00:00:00.000 : :Jess Aarons
00:05:55.438 : :Leslie Burke
00:08:16.245 : :Fastest Kid in the Fifth Grade
00:12:53.022 : :"Why Can't We Be Friends?"
00:20:07.331 : :Enchanged Rope
00:27:22.891 : :Rulers of Terabithia
00:38:50.911 : :Prince Terrien, Giant Troll Hunter
00:48:29.489 : :The Golden Room
00:54:57.836 : :Church Sunday
00:57:36.619 : :Lost Keys
01:05:48.069 : :The Perfect Day
01:09:52.938 : :No!
01:13:10.636 : :Stranded
01:23:52.819 : :Building the Bridge
01:30:38.891 : :Credits


Reportar Error Visitas: 46