INFO DISTRITO 13

General
Complete name : K:\Distrito 13 (2004) Latino HD 1080P LMHD.mkv
Format : Matroska
Format version : Version 4 / Version 2
File size : 4.56 GiB
Duration : 1h 24mn
Overall bit rate : 7 723 Kbps
Encoded date : UTC 2017-01-05 00:52:48 / UTC 2017-01-04T04:12:34Z
Writing application : mkvmerge v9.6.0 ('Slave To Your Mind') 64bit
Writing library : libebml v1.3.4 + libmatroska v1.4.5 / Lavf55.12.0

Video
ID : 1
Format : AVC
Format/Info : Advanced Video Codec
Format profile : High@L4.1
Format settings, CABAC : Yes
Format settings, ReFrames : 4 frames
Codec ID : V_MPEG4/ISO/AVC
Duration : 1h 24mn
Bit rate : 5 868 Kbps
Width : 1 920 pixels
Height : 1 080 pixels
Display aspect ratio : 16:9
Frame rate mode : Constant
Frame rate : 24.000 fps
Color space : YUV
Chroma subsampling : 4:2:0
Bit depth : 8 bits
Scan type : Progressive
Bits/(Pixel*Frame) : 0.118
Stream size : 3.46 GiB (76%)
Writing library : x264 core 142 r2479 dd79a61
Encoding settings : cabac=1 / ref=4 / deblock=1:0:0 / analyse=0x3:0x133 / me=esa / subme=10 / psy=1 / psy_rd=1.00:0.00 / mixed_ref=1 / me_range=24 / chroma_me=1 / trellis=2 / 8x8dct=1 / cqm=0 / deadzone=21,11 / fast_pskip=1 / chroma_qp_offset=-2 / threads=36 / lookahead_threads=6 / sliced_threads=0 / nr=0 / decimate=1 / interlaced=0 / bluray_compat=0 / constrained_intra=0 / bframes=8 / b_pyramid=2 / b_adapt=2 / b_bias=0 / direct=3 / weightb=1 / open_gop=0 / weightp=2 / keyint=240 / keyint_min=24 / scenecut=40 / intra_refresh=0 / rc_lookahead=60 / rc=crf / mbtree=1 / crf=20.0 / qcomp=0.60 / qpmin=0 / qpmax=69 / qpstep=4 / vbv_maxrate=62500 / vbv_bufsize=78125 / crf_max=0.0 / nal_hrd=none / filler=0 / ip_ratio=1.40 / aq=1:1.00
Default : Yes
Forced : No
Color range : Limited
Color primaries : BT.709
Transfer characteristics : BT.709
Matrix coefficients : BT.709
Statistics Tags Issue : mkvmerge v9.6.0 ('Slave To Your Mind') 64bit 2017-01-05 00:52:48 / mkvmerge v9.6.0 ('Slave To Your Mind') 64bit 2017-01-05 00:52:48 / UTC 2017-01-04T04:12:34Z
FromStats_BitRate : 6019835
FromStats_Duration : 01:24:30.642000000
FromStats_FrameCount : 121695
FromStats_StreamSize : 3815554053

Audio #1
ID : 2
Format : AC-3
Format/Info : Audio Coding 3
Mode extension : CM (complete main)
Format settings, Endianness : Big
Codec ID : A_AC3
Duration : 1h 24mn
Bit rate mode : Constant
Bit rate : 192 Kbps
Channel(s) : 2 channels
Channel positions : Front: L R
Sampling rate : 48.0 KHz
Frame rate : 31.250 fps (1536 spf)
Compression mode : Lossy
Delay relative to video : 4s 517ms
Stream size : 116 MiB (2%)
Title : Audio Latino
Language : Spanish
Default : Yes
Forced : No
Statistics Tags Issue : mkvmerge v9.6.0 ('Slave To Your Mind') 64bit 2017-01-05 00:52:48 / mkvmerge v9.6.0 ('Slave To Your Mind') 64bit 2017-01-05 00:52:48 / UTC 2017-01-04T04:12:34Z
FromStats_BitRate : 192000
FromStats_Duration : 01:24:14.240000000
FromStats_FrameCount : 157945
FromStats_StreamSize : 121301760

Audio #2
ID : 3
Format : DTS
Format/Info : Digital Theater Systems
Mode : 16
Format settings, Endianness : Big
Codec ID : A_DTS
Duration : 1h 24mn
Bit rate mode : Constant
Bit rate : 1 509 Kbps
Channel(s) : 6 channels
Channel positions : Front: L C R, Side: L R, LFE
Sampling rate : 48.0 KHz
Frame rate : 93.750 fps (512 spf)
Bit depth : 24 bits
Compression mode : Lossy
Stream size : 912 MiB (20%)
Title : Audio Ingles
Language : English
Default : No
Forced : No
Statistics Tags Issue : mkvmerge v9.6.0 ('Slave To Your Mind') 64bit 2017-01-05 00:52:48 / mkvmerge v9.6.0 ('Slave To Your Mind') 64bit 2017-01-05 00:52:48 / UTC 2017-01-04T04:12:34Z
FromStats_BitRate : 1508999
FromStats_Duration : 01:24:30.667000000
FromStats_FrameCount : 475375
FromStats_StreamSize : 956454500

Text
ID : 4
Format : UTF-8
Codec ID : S_TEXT/UTF8
Codec ID/Info : UTF-8 Plain Text
Title : Subtitulos Español Latino
Language : Spanish
Default : No
Forced : No
Statistics Tags Issue : mkvmerge v9.6.0 ('Slave To Your Mind') 64bit 2017-01-05 00:52:48 / mkvmerge v9.6.0 ('Slave To Your Mind') 64bit 2017-01-05 00:52:48 / UTC 2017-01-04T04:12:34Z
FromStats_BitRate : 70
FromStats_Duration : 01:19:57.223000000
FromStats_FrameCount : 965
FromStats_StreamSize : 42550

Menu
00:00:00.000 : :Chapter 1
00:02:43.683 : :Chapter 2
00:11:38.017 : :Chapter 3
00:13:06.808 : :Chapter 4
00:20:00.350 : :Chapter 5
00:22:48.725 : :Chapter 6
00:33:27.892 : :Chapter 7
00:36:15.475 : :Chapter 8
00:43:33.558 : :Chapter 9
00:49:42.058 : :Chapter 10
00:55:45.642 : :Chapter 11
01:02:24.517 : :Chapter 12
01:05:45.267 : :Chapter 13
01:08:58.558 : :Chapter 14
01:14:48.600 : :Chapter 15
01:20:34.475 : :Chapter 16


Reportar Error Visitas: 25