INFO RED TAILS

General
Complete name : K:\Red Tails (2012) Latino HD 1080P.mkv
Format : Matroska
Format version : Version 4 / Version 2
File size : 4.38 GiB
Duration : 2h 5mn
Overall bit rate : 5 014 Kbps
Encoded date : UTC 2017-01-03 03:19:13 / UTC 2017-01-02T01:24:52Z
Writing application : mkvmerge v9.6.0 ('Slave To Your Mind') 64bit
Writing library : libebml v1.3.4 + libmatroska v1.4.5 / Lavf55.12.0

Video
ID : 1
Format : AVC
Format/Info : Advanced Video Codec
Format profile : High@L4.1
Format settings, CABAC : Yes
Format settings, ReFrames : 4 frames
Codec ID : V_MPEG4/ISO/AVC
Duration : 2h 5mn
Bit rate : 2 957 Kbps
Width : 1 920 pixels
Height : 1 080 pixels
Display aspect ratio : 16:9
Frame rate mode : Constant
Frame rate : 23.976 (24000/1001) fps
Color space : YUV
Chroma subsampling : 4:2:0
Bit depth : 8 bits
Scan type : Progressive
Bits/(Pixel*Frame) : 0.059
Stream size : 2.58 GiB (59%)
Writing library : x264 core 142 r2479 dd79a61
Encoding settings : cabac=1 / ref=4 / deblock=1:0:0 / analyse=0x3:0x133 / me=esa / subme=10 / psy=1 / psy_rd=1.00:0.00 / mixed_ref=1 / me_range=24 / chroma_me=1 / trellis=2 / 8x8dct=1 / cqm=0 / deadzone=21,11 / fast_pskip=1 / chroma_qp_offset=-2 / threads=36 / lookahead_threads=6 / sliced_threads=0 / nr=0 / decimate=1 / interlaced=0 / bluray_compat=0 / constrained_intra=0 / bframes=8 / b_pyramid=2 / b_adapt=2 / b_bias=0 / direct=3 / weightb=1 / open_gop=0 / weightp=2 / keyint=240 / keyint_min=24 / scenecut=40 / intra_refresh=0 / rc_lookahead=60 / rc=crf / mbtree=1 / crf=20.0 / qcomp=0.60 / qpmin=0 / qpmax=69 / qpstep=4 / vbv_maxrate=62500 / vbv_bufsize=78125 / crf_max=0.0 / nal_hrd=none / filler=0 / ip_ratio=1.40 / aq=1:1.00
Default : Yes
Forced : No
Color range : Limited
Color primaries : BT.709
Transfer characteristics : BT.709
Matrix coefficients : BT.709
Statistics Tags Issue : mkvmerge v9.6.0 ('Slave To Your Mind') 64bit 2017-01-03 03:19:13 / mkvmerge v9.6.0 ('Slave To Your Mind') 64bit 2017-01-03 03:19:13 / UTC 2017-01-02T01:24:52Z
FromStats_BitRate : 3054506
FromStats_Duration : 02:05:00.618000000
FromStats_FrameCount : 179835
FromStats_StreamSize : 2863835564

Audio #1
ID : 2
Format : AC-3
Format/Info : Audio Coding 3
Mode extension : CM (complete main)
Format settings, Endianness : Big
Codec ID : A_AC3
Duration : 2h 5mn
Bit rate mode : Constant
Bit rate : 448 Kbps
Channel(s) : 6 channels
Channel positions : Front: L C R, Side: L R, LFE
Sampling rate : 48.0 KHz
Frame rate : 31.250 fps (1536 spf)
Compression mode : Lossy
Stream size : 401 MiB (9%)
Title : Audio Español Latino
Language : Spanish
Default : Yes
Forced : No
Statistics Tags Issue : mkvmerge v9.6.0 ('Slave To Your Mind') 64bit 2017-01-03 03:19:13 / mkvmerge v9.6.0 ('Slave To Your Mind') 64bit 2017-01-03 03:19:13 / UTC 2017-01-02T01:24:52Z
FromStats_BitRate : 448000
FromStats_Duration : 02:05:00.640000000
FromStats_FrameCount : 234395
FromStats_StreamSize : 420035840

Audio #2
ID : 3
Format : DTS
Format/Info : Digital Theater Systems
Mode : 16
Format settings, Endianness : Big
Codec ID : A_DTS
Duration : 2h 5mn
Bit rate mode : Constant
Bit rate : 1 509 Kbps
Channel(s) : 6 channels
Channel positions : Front: L C R, Side: L R, LFE
Sampling rate : 48.0 KHz
Frame rate : 93.750 fps (512 spf)
Bit depth : 24 bits
Compression mode : Lossy
Stream size : 1.32 GiB (30%)
Title : Audio Ingles
Language : English
Default : No
Forced : No
Statistics Tags Issue : mkvmerge v9.6.0 ('Slave To Your Mind') 64bit 2017-01-03 03:19:13 / mkvmerge v9.6.0 ('Slave To Your Mind') 64bit 2017-01-03 03:19:13 / UTC 2017-01-02T01:24:52Z
FromStats_BitRate : 1509000
FromStats_Duration : 02:05:00.608000000
FromStats_FrameCount : 703182
FromStats_StreamSize : 1414802184

Text #1
ID : 4
Format : UTF-8
Codec ID : S_TEXT/UTF8
Codec ID/Info : UTF-8 Plain Text
Title : Forzados
Language : Spanish
Default : Yes
Forced : No
Statistics Tags Issue : mkvmerge v9.6.0 ('Slave To Your Mind') 64bit 2017-01-03 03:19:13 / mkvmerge v9.6.0 ('Slave To Your Mind') 64bit 2017-01-03 03:19:13 / UTC 2017-01-02T01:24:52Z
FromStats_BitRate : 0
FromStats_Duration : 01:16:46.101000000
FromStats_FrameCount : 17
FromStats_StreamSize : 512

Text #2
ID : 5
Format : UTF-8
Codec ID : S_TEXT/UTF8
Codec ID/Info : UTF-8 Plain Text
Title : Subtitulos Español Latino Completos
Language : Spanish
Default : No
Forced : No
Statistics Tags Issue : mkvmerge v9.6.0 ('Slave To Your Mind') 64bit 2017-01-03 03:19:13 / mkvmerge v9.6.0 ('Slave To Your Mind') 64bit 2017-01-03 03:19:13 / UTC 2017-01-02T01:24:52Z
FromStats_BitRate : 49
FromStats_Duration : 02:01:19.603000000
FromStats_FrameCount : 1334
FromStats_StreamSize : 45382


Reportar Error Visitas: 56